L'arte della guerra (Mondadori) | Xbox One | مشاهدة المزيد من المواضيع المختارة

Sanju (2018) Hindi - New - PreDVDRip - x264 - 1.4GB - AC3 - ESub ...

  • Category Movies
  • Type Bollywood
  • Language Hindi
  • Total size 1.5 GB
  • Uploaded By MovCr
  • Downloads 0
  • Last checked 35 seconds ago
  • Date uploaded 41 seconds ago
  • Seeders 0
  • Leechers 0

Infohash : 5BED54814D9FE9866CDF14412DA2E550B96A7323

http://movcr.com

Sanju (2018) Hindi - New - PreDVDRip - x264 - 1.4GB - AC3 - ESub - MovCr


Video
ID : 1
Format : MPEG-4 Visual
Format profile : Advanced [email protected]
Format settings : BVOP2 / QPel
Format settings, BVOP : 2
Format settings, QPel : Yes
Format settings, GMC : No warppoints
Format settings, Matrix : Default (H.263)
Codec ID : V_MS/VFW/FOURCC / XVID
Codec ID/Hint : XviD
Duration : 2 h 28 min
Bit rate : 1 022 kb/s
Width : 720 pixels
Height : 272 pixels
Display aspect ratio : 2.647
Frame rate mode : Constant
Frame rate : 25.000 FPS
Color space : YUV
Chroma subsampling : 4:2:0
Bit depth : 8 bits
Scan type : Progressive
Compression mode : Lossy
Bits/(Pixel*Frame) : 0.209
Stream size : 1.06 GiB (73%)
Title : www.MovCr.com
Writing library : XviD 1.2.1 (UTC 2008-12-04)
Language : English
Default : Yes
Forced : No

Audio
ID : 2
Format : AC-3
Format/Info : Audio Coding 3
Codec ID : A_AC3
Duration : 2 h 28 min
Bit rate mode : Constant
Bit rate : 384 kb/s
Channel(s) : 6 channels
Channel positions : Front: L C R, Side: L R, LFE
Sampling rate : 48.0 kHz
Frame rate : 31.250 FPS (1536 SPF)
Bit depth : 16 bits
Compression mode : Lossy
Stream size : 408 MiB (27%)
Title : www.MovCr.com
Language : English
Service kind : Complete Main
Default : Yes
Forced : No

Text
ID : 3
Format : UTF-8
Codec ID : S_TEXT/UTF8
Codec ID/Info : UTF-8 Plain Text
Duration : 2 h 27 min
Bit rate : 58 b/s
Count of elements : 1814
Stream size : 63.0 KiB (0%)
Title : www.MovCr.com
Language : English
Default : No
Forced : No






Files:

  • [MovCr.com] - Sanju (2018) Hindi - New - PreDVDRip - x264 - 1.4GB - AC3 - ESub - MovCr.mkv (1.5 GB)

There are currently no comments. Feel free to leave one :)

Code:

  • udp://tracker.openbittorrent.com:80/announce
  • udp://tracker.opentrackr.org:1337/announce
  • udp://tracker.coppersurfer.tk:6969/announce
  • udp://tracker.opentrackr.org:1337/announce
  • udp://tracker.leechers-paradise.org:6969/announce
  • udp://9.rarbg.to:2750/announce
  • udp://eddie4.nl:6969/announce
  • udp://9.rarbg.to:2750/announce
  • udp://tracker.doko.moe:6969/announce
  • udp://thetracker.org:80/announce
  • udp://bt.xxx-tracker.com:2710/announce
  • udp://tracker.vanitycore.co:6969/announce
  • udp://tracker.tiny-vps.com:6969/announce
  • udp://tracker.leechers-paradise.org:6969/announce
  • udp://tracker.opentrackr.org:1337/announce
  • udp://tracker.coppersurfer.tk:6969/announce
  • udp://open.stealth.si:80/announce
  • udp://inferno.demonoid.pw:3418/announce
  • udp://retracker.lanta-net.ru:2710/announce
  • udp://peerfect.org:6969/announce
  • udp://tracker.swateam.org.uk:2710/announce